<?xml version="1.0" standalone="no"?>
<!DOCTYPE svg PUBLIC "-//W3C//DTD SVG 1.1//EN" "http://www.w3.org/Graphics/SVG/1.1/DTD/svg11.dtd" >
<svg xmlns="http://www.w3.org/2000/svg" xmlns:xlink="http://www.w3.org/1999/xlink" version="1.1">
<metadata></metadata>
<defs>
<font id="univers45_light" horiz-adv-x="1138" >
<font-face units-per-em="2048" ascent="1536" descent="-512" />
<missing-glyph horiz-adv-x="569" />
<glyph horiz-adv-x="0" />
<glyph horiz-adv-x="682" />
<glyph unicode=" "  horiz-adv-x="569" />
<glyph unicode="&#x09;" horiz-adv-x="569" />
<glyph unicode="&#xa0;" horiz-adv-x="569" />
<glyph unicode="!" horiz-adv-x="796" d="M315 1479h168l-26 -1129h-115zM317 0v176h164v-176h-164z" />
<glyph unicode="&#x22;" horiz-adv-x="569" d="M119 1016v463h106v-463h-106zM344 1016v463h107v-463h-107z" />
<glyph unicode="#" d="M59 463v123h242l41 280h-227v123h243l66 428h121l-64 -428h277l61 428h121l-63 -428h202v-123h-219l-41 -280h207v-123h-225l-64 -463h-121l64 463h-279l-69 -463h-119l70 463h-224zM418 586h280l41 280h-276z" />
<glyph unicode="$" d="M86 360h143q-8 -128 73 -194t212 -74v563q-15 6 -55 20t-71.5 26.5t-75 34t-76 49.5t-62 65.5t-45.5 90t-16 114.5q0 105 60 197t152.5 144t188.5 52v98h102v-98q76 0 147.5 -24t129.5 -68t95 -113t42 -153h-143q-1 62 -25.5 109.5t-65 74t-86 40t-94.5 15.5v-563 q168 -54 232 -86q155 -77 193 -213q14 -51 14 -111q0 -96 -38 -172t-101.5 -122t-140 -69.5t-159.5 -23.5v-108h-102v108q-66 2 -128 17t-118.5 46.5t-98 75.5t-64 109t-19.5 143zM256 1057q0 -57 21 -101.5t61.5 -74.5t80.5 -48.5t95 -35.5v528q-105 -2 -181.5 -76 t-76.5 -192zM616 92q74 5 139 35.5t110.5 91.5t45.5 141q0 48 -19 88.5t-38 63.5t-68.5 50t-68 34t-80.5 29q-14 5 -21 8v-541z" />
<glyph unicode="%" horiz-adv-x="2048" d="M242 1061q0 160 88 273.5t237 113.5t237.5 -113.5t88.5 -273.5t-88.5 -273.5t-237.5 -113.5t-237 113.5t-88 273.5zM354 1061q0 -53 11 -102.5t35 -94t67 -71.5t100 -27t100 27t67 71.5t35 94t11 102.5t-11 102.5t-35 94t-67 71.5t-100 27t-100 -27t-67 -71.5t-35 -94 t-11 -102.5zM539 0l798 1448h119l-799 -1448h-118zM1155 356q0 160 88.5 273.5t237.5 113.5t237 -113.5t88 -273.5t-88 -273.5t-237 -113.5t-237.5 113.5t-88.5 273.5zM1268 356q0 -53 11 -102.5t35 -94t67 -71.5t100 -27t100 27t67 71.5t35 94t11 102.5t-11 102.5t-35 94 t-67 71.5t-100 27t-100 -27t-67 -71.5t-35 -94t-11 -102.5z" />
<glyph unicode="&#x26;" horiz-adv-x="1478" d="M111 406q0 63 23 121.5t48.5 97t84 89t87.5 71t101 68.5q11 7 16 11l8 8q-47 55 -70.5 84t-58 81t-50 102t-15.5 102q0 87 48 149.5t119.5 90.5t155.5 28q62 0 119.5 -16t105.5 -46.5t76.5 -82t28.5 -117.5q0 -51 -17 -99.5t-40 -84.5t-63 -77t-71 -66.5t-79 -61.5 l432 -461q50 112 75 265t19 282h143q-23 -243 -39 -331q-34 -184 -108 -308l280 -305h-190l-176 197q-96 -113 -205.5 -170.5t-247.5 -57.5q-150 0 -272 52t-195 153t-73 232zM254 434q0 -78 32 -143.5t86 -108.5t123 -66.5t144 -23.5q117 0 206.5 47.5t180.5 143.5 l-463 497q-46 -29 -91 -64t-98.5 -83t-86.5 -101t-33 -98zM428 1239q0 -121 160 -295q14 14 52.5 48.5t58.5 55.5t46 53.5t38 66.5t12 71q0 71 -53.5 109t-127.5 38q-79 0 -132.5 -36.5t-53.5 -110.5z" />
<glyph unicode="'" horiz-adv-x="569" d="M231 1016v463h107v-463h-107z" />
<glyph unicode="(" horiz-adv-x="569" d="M156 641q0 98 16.5 200.5t50 210t63.5 189.5t75 198q11 27 16 40h102q-180 -456 -180 -838q0 -196 50.5 -415.5t129.5 -422.5h-104q-10 26 -43 112.5t-45.5 122t-39 112.5t-38 124.5t-26.5 115t-21 129t-6 122.5z" />
<glyph unicode=")" horiz-adv-x="569" d="M90 -197q79 203 129.5 422.5t50.5 415.5q0 382 -180 838h103q113 -289 150 -411q71 -237 71 -427q0 -61 -6 -122.5t-21 -129t-26.5 -115t-38 -124.5t-39 -112.5t-45.5 -122t-43 -112.5h-105z" />
<glyph unicode="*" d="M213 1067v119l297 -25l-186 258l108 60l139 -279l138 279l104 -58l-180 -260l293 25v-119l-291 23l176 -265l-106 -55l-134 283l-139 -287l-102 59l178 262z" />
<glyph unicode="+" horiz-adv-x="1351" d="M164 453v122h450v453h123v-453h451v-122h-451v-453h-123v453h-450z" />
<glyph unicode="," horiz-adv-x="569" d="M121 -254l88 420h166l-148 -420h-106z" />
<glyph unicode="-" horiz-adv-x="569" d="M27 485v123h516v-123h-516z" />
<glyph unicode="." horiz-adv-x="569" d="M203 0v176h164v-176h-164z" />
<glyph unicode="/" horiz-adv-x="569" d="M-47 -197l530 1676h133l-534 -1676h-129z" />
<glyph unicode="0" d="M98 709q0 739 471 739t471 -739q0 -740 -471 -740t-471 740zM242 709q0 -53 2 -101t10 -113t21.5 -118t38.5 -108t58.5 -92.5t84 -61t112.5 -23.5t112.5 23.5t84 61t58.5 92.5t38.5 108t22 118t10.5 113t2 101t-2 101t-10.5 113t-22 118t-38.5 107.5t-58.5 92t-84 61 t-112.5 23.5t-112.5 -23.5t-84 -61t-58.5 -92t-38.5 -107.5t-21.5 -118t-10 -113t-2 -101z" />
<glyph unicode="1" d="M238 1061v133q171 69 325 223h127v-1417h-133v1274q-126 -121 -319 -213z" />
<glyph unicode="2" d="M102 0v139q73 66 148.5 138t186 188.5t192.5 218t142 209.5t60 180q0 119 -81 185.5t-203 66.5q-127 0 -207 -79t-80 -204h-143q0 184 123 295t311 111q87 0 162.5 -23t134.5 -67.5t93 -116t34 -160.5q0 -60 -22.5 -128.5t-57 -130.5t-89.5 -135t-104.5 -129.5t-119 -127 t-116 -114.5t-112 -105.5t-92.5 -87.5h731v-123h-891z" />
<glyph unicode="3" d="M66 375h143q1 -85 47.5 -150.5t118.5 -99t155 -33.5q149 0 246.5 78.5t97.5 224.5q0 66 -24 119t-65 85.5t-94.5 54t-112 24.5t-117.5 -4v129q71 -8 138.5 3.5t125 41.5t92.5 87t35 134q0 118 -91 187t-222 69q-135 0 -215.5 -67.5t-94.5 -190.5h-143q0 87 36.5 160 t97.5 120.5t139 74t161 26.5q93 0 176 -22.5t151 -67.5t108 -121.5t40 -175.5q0 -124 -81.5 -209t-206.5 -111v-4q139 -30 225 -124.5t86 -233.5q0 -96 -42 -175.5t-112 -129.5t-155.5 -77.5t-176.5 -27.5q-197 0 -328.5 106t-137.5 300z" />
<glyph unicode="4" d="M45 330v129l623 958h176v-977h227v-110h-227v-330h-133v330h-666zM158 440h553v844h-4z" />
<glyph unicode="5" d="M127 348h143q6 -123 90 -189.5t211 -66.5q158 0 242 106t84 269q0 159 -81 251.5t-236 92.5q-104 0 -185 -58.5t-102 -156.5h-137l32 821h781v-123h-654l-22 -506l4 -4q130 150 311 150q129 0 229 -65.5t151.5 -172.5t51.5 -235q0 -137 -54 -248t-158.5 -177.5 t-241.5 -66.5q-93 0 -172.5 22t-143.5 66.5t-102 119t-41 171.5z" />
<glyph unicode="6" d="M92 637q0 86 4.5 159.5t18 159t36 153.5t62 133.5t92.5 109t130 70t173 26.5q183 0 300 -93t120 -270h-143q-4 108 -82 174t-189 66q-71 0 -128 -22t-95.5 -57.5t-67.5 -88t-45.5 -106.5t-26 -121t-12.5 -122.5t-3 -119.5h4q46 114 145 173t227 59q205 0 320 -130 t115 -339q0 -208 -121.5 -345t-325.5 -137q-115 0 -204.5 37.5t-145.5 99.5t-92.5 149.5t-51 181t-14.5 200.5zM260 432q0 -137 92.5 -238.5t227.5 -101.5q153 0 238 97.5t85 252.5q0 57 -10.5 109.5t-33.5 99.5t-57 81.5t-84.5 54.5t-111.5 20q-163 0 -254.5 -105.5 t-91.5 -269.5z" />
<glyph unicode="7" d="M104 1294v123h904v-119l-551 -1298h-156l567 1294h-764z" />
<glyph unicode="8" d="M88 385q-1 134 83.5 227t225.5 123v4q-124 12 -206 106.5t-82 221.5q0 95 39.5 169.5t106 119.5t146.5 68.5t168 23.5t168.5 -23.5t147 -68.5t106 -119.5t39.5 -169.5q0 -125 -79.5 -212t-205.5 -116v-2q145 -38 225.5 -126.5t80.5 -225.5q0 -104 -41.5 -185.5 t-111 -130.5t-153.5 -74.5t-176 -25.5t-176 25.5t-153.5 74.5t-110.5 130.5t-41 185.5zM231 385q0 -74 28 -131t75.5 -92t107 -52.5t127.5 -17.5t127.5 17.5t107 52.5t75.5 92t28 131t-28 131t-75.5 92t-107 52.5t-127.5 17.5t-127.5 -17.5t-107 -52.5t-75.5 -92t-28 -131z M242 1067q0 -128 90.5 -197t236.5 -69t237 69t91 197q0 55 -19 100.5t-51 76t-74.5 51.5t-88.5 30.5t-95 9.5q-62 0 -118.5 -15.5t-104 -46.5t-76 -84.5t-28.5 -121.5z" />
<glyph unicode="9" d="M92 985q0 204 124.5 333.5t328.5 129.5q504 0 504 -700q0 -87 -6 -163.5t-22 -157.5t-41.5 -146t-67.5 -124.5t-97 -100t-132.5 -64t-172.5 -23.5q-185 0 -292.5 103t-121.5 276h144q4 -133 86 -194.5t221 -61.5q67 0 121.5 26.5t91 68.5t64 102t42.5 118.5t24.5 128 t12 121t2.5 105.5h-4q-52 -102 -151.5 -159.5t-223.5 -57.5q-191 0 -312.5 124.5t-121.5 315.5zM236 975q0 -141 82.5 -229.5t220.5 -88.5q148 0 245 94.5t97 241.5q0 146 -94 239t-240 93q-152 0 -231.5 -97.5t-79.5 -252.5z" />
<glyph unicode=":" horiz-adv-x="569" d="M203 0v176h164v-176h-164zM203 852v176h164v-176h-164z" />
<glyph unicode=";" horiz-adv-x="569" d="M160 -254l88 420h166l-148 -420h-106zM219 852v176h164v-176h-164z" />
<glyph unicode="&#x3c;" horiz-adv-x="1351" d="M164 461v108l1024 457v-131l-862 -381l862 -403v-131z" />
<glyph unicode="=" horiz-adv-x="1351" d="M164 254v123h1024v-123h-1024zM164 651v123h1024v-123h-1024z" />
<glyph unicode="&#x3e;" horiz-adv-x="1351" d="M164 2v131l862 381l-862 404v131l1024 -482v-108z" />
<glyph unicode="?" horiz-adv-x="1024" d="M213 1356v125q90 28 225 28q88 0 165 -22.5t137.5 -66.5t95 -115t34.5 -162q0 -42 -6.5 -79t-23.5 -71t-31.5 -59t-44.5 -58.5t-48.5 -52t-56.5 -55.5q-31 -33 -73.5 -74.5t-56.5 -56.5t-31 -40.5t-19.5 -48.5t0.5 -59v-143h-123v221q1 39 23 79t55.5 75t74 71.5t80.5 75 t73.5 79t54 90.5t20.5 102q0 69 -27.5 119.5t-76 77t-104.5 38.5t-123 12q-91 0 -193 -30zM336 0v176h164v-176h-164z" />
<glyph unicode="@" horiz-adv-x="1638" d="M82 745q0 155 61.5 297t164 244t243 162.5t293.5 60.5q193 0 353 -82t253.5 -229.5t93.5 -329.5q0 -117 -43.5 -228t-111.5 -190.5t-152.5 -127.5t-165.5 -48q-59 0 -108.5 27.5t-65.5 79.5q-45 -47 -112 -74.5t-132 -27.5q-127 0 -203.5 87.5t-76.5 217.5q0 82 23 168.5 t68 165.5t105 142t140.5 100.5t167.5 37.5q73 0 135 -34.5t92 -98.5l31 94h135l-205 -614q-13 -39 -19 -63.5t-5.5 -48.5t15 -35t44.5 -11q81 0 156.5 76.5t120 189.5t44.5 221q0 120 -46.5 221.5t-125 169t-182.5 105t-219 37.5q-138 0 -259 -54t-204.5 -145.5 t-131.5 -215.5t-48 -261q0 -136 50 -257.5t135.5 -210t206 -140t255.5 -51.5q159 0 303.5 73t235.5 203h118q-94 -175 -274.5 -277t-382.5 -102q-160 0 -303.5 61.5t-245.5 165.5t-161.5 247.5t-59.5 301.5zM526 594q0 -78 42.5 -135.5t115.5 -57.5q66 1 130.5 58t108 139.5 t70.5 172.5t27 159q0 61 -39 103t-100 42q-77 0 -146 -49t-113.5 -123t-70 -156t-25.5 -153z" />
<glyph unicode="A" horiz-adv-x="1366" d="M18 0l586 1479h156l590 -1479h-146l-157 399h-736l-155 -399h-138zM354 522h645l-319 834z" />
<glyph unicode="B" horiz-adv-x="1366" d="M205 0v1479l530 -2q172 0 292 -99.5t120 -269.5q0 -121 -78 -213.5t-197 -120.5v-4q155 -25 245.5 -122.5t90.5 -252.5q0 -61 -14.5 -116.5t-48 -107t-83 -89t-125.5 -60t-169 -22.5h-563zM338 123h326h17q188 1 284 63q100 66 100 228q0 74 -24 127t-64 84.5 t-104.5 49.5t-130.5 24t-158 6h-246v-582zM338 827h321q68 0 127 14.5t109.5 44.5t79.5 84t29 126q0 62 -20.5 109t-52.5 75t-79.5 45.5t-94.5 23.5t-104 7h-315v-529z" />
<glyph unicode="C" horiz-adv-x="1366" d="M125 739q0 124 23 236t73 210.5t123.5 169.5t180.5 112.5t237 41.5q94 0 176.5 -22t151.5 -66t112.5 -118t50.5 -170h-143q-18 127 -114.5 190t-233.5 63q-110 0 -196.5 -38.5t-141.5 -101.5t-91 -149t-50.5 -174t-14.5 -184t14.5 -184t50.5 -174t91 -149t141.5 -101.5 t196.5 -38.5q85 0 159 27t130.5 89t74.5 150h144q-21 -120 -97.5 -210t-183 -134.5t-227.5 -44.5q-131 0 -238 41t-180.5 112t-123.5 169t-72.5 210t-22.5 238z" />
<glyph unicode="D" horiz-adv-x="1478" d="M186 0v1479h400q367 0 564.5 -188.5t197.5 -551.5t-197.5 -551t-564.5 -188h-400zM319 123h299q301 0 443.5 162t142.5 454q0 320 -176 473q-167 144 -465 144h-35h-209v-1233z" />
<glyph unicode="E" horiz-adv-x="1251" d="M209 0v1479h878v-123h-745v-531h717v-123h-717v-579h776v-123h-909z" />
<glyph unicode="F" d="M195 0v1479h835v-123h-702v-522h678v-123h-678v-711h-133z" />
<glyph unicode="G" horiz-adv-x="1478" d="M131 739q0 116 24 226.5t75.5 209.5t124 173t178 117.5t229.5 43.5q127 0 239 -43t191 -135t90 -217h-152q-13 90 -68.5 153t-132 91t-167.5 28q-103 0 -186.5 -38t-138.5 -101t-92.5 -148t-54 -175t-16.5 -185q0 -145 31.5 -260.5t97 -203.5t174 -135.5t254.5 -47.5 q120 0 328 62v477h-371v123h504v-693q-234 -92 -530 -92q-198 0 -341.5 98t-216.5 271t-73 401z" />
<glyph unicode="H" horiz-adv-x="1478" d="M203 0v1479h133v-650h807v650h133v-1479h-133v707h-807v-707h-133z" />
<glyph unicode="I" horiz-adv-x="569" d="M219 0v1485h133v-1485h-133z" />
<glyph unicode="J" horiz-adv-x="1024" d="M27 365h143q11 -122 87 -197.5t194 -75.5q68 0 119.5 32t81.5 86t44.5 117.5t14.5 133.5v1018h133v-998q0 -69 -5 -119.5t-29 -121.5t-69 -125q-120 -146 -333 -146q-87 0 -156 31t-114 87t-72.5 125t-38.5 153z" />
<glyph unicode="K" horiz-adv-x="1251" d="M217 0v1479h131l2 -652l662 652h168l-682 -668l743 -811h-182l-709 772l-2 -772h-131z" />
<glyph unicode="L" d="M205 0v1479h133v-1356h743v-123h-876z" />
<glyph unicode="M" horiz-adv-x="1933" d="M199 0v1479h213l555 -1289l567 1289h203v-1479h-133v1366h-5l-565 -1366h-133l-565 1360h-4v-1360h-133z" />
<glyph unicode="N" horiz-adv-x="1478" d="M188 0v1479h152l815 -1301h4v1301h133v-1479h-168l-798 1278h-4v-1278h-134z" />
<glyph unicode="O" horiz-adv-x="1593" d="M137 739q0 231 76 404t226 269.5t358 96.5t358 -96.5t225.5 -269.5t75.5 -404t-75.5 -404t-225.5 -269.5t-358 -96.5t-358 96.5t-226 269.5t-76 404zM281 739q0 -100 18 -192t58 -175.5t98.5 -145t146.5 -98t195 -36.5t195 36.5t146.5 98t98.5 145t58 175.5t18 192 t-18 192t-58 175.5t-98.5 145t-146.5 98t-195 36.5t-195 -36.5t-146.5 -98t-98.5 -145t-58 -175.5t-18 -192z" />
<glyph unicode="P" horiz-adv-x="1251" d="M205 0v1479h370h33q74 0 140 -7q80 -9 162 -36.5t139.5 -73t94 -122.5t36.5 -179t-36.5 -179t-94 -122.5t-139.5 -73.5q-82 -27 -162 -36q-66 -7 -140 -7h-33h-237v-643h-133zM338 766h324q374 0 374 295t-374 295h-324v-590z" />
<glyph unicode="Q" horiz-adv-x="1593" d="M137 739q0 231 76 404t226 269.5t358 96.5t358 -96.5t225.5 -269.5t75.5 -404q0 -190 -68 -357.5t-202 -268.5l4 -4q46 7 98 9.5t120.5 3t102.5 1.5v-123h-301q-17 0 -73 4q-50 5 -95 5q-5 0 -10 -1q-48 0 -84 -10q-92 -29 -151 -29q-208 0 -358 96.5t-226 269.5t-76 404 zM281 739q0 -100 18 -192t58 -175.5t98.5 -145t146.5 -98t195 -36.5t195 36.5t146.5 98t98.5 145t58 175.5t18 192t-18 192t-58 175.5t-98.5 145t-146.5 98t-195 36.5t-195 -36.5t-146.5 -98t-98.5 -145t-58 -175.5t-18 -192z" />
<glyph unicode="R" horiz-adv-x="1366" d="M211 0v1479h483q113 0 191.5 -15t156.5 -63q152 -91 152 -309q0 -118 -77 -201.5t-208 -116.5v-4q55 -9 96 -30t67 -49t44 -70t26.5 -83.5t14.5 -97.5q7 -61 15 -152.5t12.5 -128t17 -82t33.5 -77.5h-154q-35 98 -51 307q-7 72 -11.5 115t-13.5 89.5t-18.5 70.5t-27 50 t-38 37t-52 21t-69 12.5t-89.5 2.5h-367v-705h-133zM344 827h285q48 0 83 1.5t82 7t80.5 16t69 30.5t57.5 47.5t36 69t14 93.5q0 49 -10.5 88.5t-28.5 66t-43 47t-54 31.5t-60.5 19t-63.5 9t-62.5 3t-58.5 0h-27h-299v-529z" />
<glyph unicode="S" horiz-adv-x="1251" d="M119 385h143q5 -293 371 -293q64 0 126 18.5t114 53t84 90t32 123.5q0 102 -62 162.5t-169 95.5q-26 9 -75 24t-80.5 25.5t-80 28t-81.5 32.5t-74.5 38t-69.5 45.5t-57.5 53.5t-46.5 64t-28 75t-11 89q0 75 26.5 140t72 112t106 80.5t128.5 50t138 16.5q63 0 122 -9 t121.5 -33.5t110.5 -62.5t82.5 -101.5t44.5 -145.5h-143q-1 53 -20.5 93.5t-50.5 66t-73.5 41.5t-85.5 22t-92 6q-60 0 -119 -15.5t-110.5 -45.5t-83 -81.5t-31.5 -115.5q0 -67 28.5 -119t77 -85.5t111 -60t132 -49t139 -45.5t132 -55.5t111 -74t77 -105t28.5 -145.5 q0 -94 -31.5 -167t-84.5 -120t-128 -77.5t-156 -43t-174 -12.5q-117 0 -216.5 52.5t-160 148.5t-63.5 215z" />
<glyph unicode="T" d="M29 1356v123h1081v-123h-469l-2 -1356h-131l-2 1356h-477z" />
<glyph unicode="U" horiz-adv-x="1478" d="M199 520v959h133v-957q8 -201 116 -315.5t291 -114.5t292 114.5t116 315.5v957h133v-959q-2 -120 -36.5 -220t-100.5 -174t-169.5 -115.5t-234.5 -41.5t-234 41.5t-169 115.5t-100.5 174t-36.5 220z" />
<glyph unicode="V" horiz-adv-x="1251" d="M12 1479h146l475 -1346h4l469 1346h133l-534 -1479h-152z" />
<glyph unicode="W" horiz-adv-x="2048" d="M20 1479h142l344 -1346h4l432 1346h162l450 -1346h5l342 1346h129l-390 -1479h-182l-436 1341h-4l-424 -1341h-188z" />
<glyph unicode="X" horiz-adv-x="1251" d="M16 0l527 762l-500 717h174l418 -623l434 623h150l-512 -717l528 -762h-170l-449 662l-448 -662h-152z" />
<glyph unicode="Y" horiz-adv-x="1251" d="M16 1479h170l453 -715l453 715h143l-541 -836v-643h-133v639z" />
<glyph unicode="Z" d="M80 0v123l821 1233h-821v123h979v-123l-823 -1233h823v-123h-979z" />
<glyph unicode="[" horiz-adv-x="569" d="M174 -197v1676h281v-103h-148v-1470h148v-103h-281z" />
<glyph unicode="\" horiz-adv-x="569" d="M-90 1479h133l619 -1479h-134z" />
<glyph unicode="]" horiz-adv-x="569" d="M115 -94h147v1470h-147v103h280v-1676h-280v103z" />
<glyph unicode="^" horiz-adv-x="1351" d="M152 489l471 928h106l473 -928h-117l-411 803l-404 -803h-118z" />
<glyph unicode="_" horiz-adv-x="1024" d="M0 -139h1024v-115h-1024v115z" />
<glyph unicode="`" horiz-adv-x="569" d="M41 1448h164l186 -293h-90z" />
<glyph unicode="a" horiz-adv-x="1024" d="M74 287q0 102 56 180t151 117q62 27 135 36t185.5 9t143.5 2v94q-9 121 -69 171t-174 50q-232 0 -252 -178h-131q11 77 45 134t85.5 91t115 50t139.5 16q176 0 272 -84q93 -81 92 -246v-10v-488v-29v-46q2 -38 6 -88.5t5 -67.5h-127l-4 152h-5l-6 -15 q-35 -67 -127.5 -117.5t-193.5 -50.5q-147 0 -244.5 85.5t-97.5 232.5zM207 287q0 -99 65.5 -152t165.5 -53q78 0 136 25t91.5 66t53.5 99t25 118q3 33 3 69q0 29 -2 59q-21 -1 -72.5 -1.5t-86 -1t-87.5 -5.5t-89.5 -13t-77.5 -25t-66 -40.5t-42 -60.5t-17 -84z" />
<glyph unicode="b" d="M133 0q10 175 10 231v1248h123v-602l4 -5q52 88 149.5 137.5t203.5 49.5q89 0 161 -31t119.5 -82.5t80 -122t46.5 -147t14 -158.5q0 -80 -14 -156.5t-46 -148t-79 -125.5t-118 -86.5t-158 -32.5q-112 0 -204 49t-155 142l-4 -8l-6 -152h-127zM266 535q0 -73 10.5 -137 t36 -123t64.5 -101t100 -67t139 -25q68 0 121 28.5t85 73.5t53 105.5t28.5 118.5t7.5 120t-10 119.5t-33.5 112.5t-58.5 95.5t-89.5 65.5t-121.5 25q-87 0 -152.5 -34.5t-104 -93.5t-57 -130t-18.5 -153z" />
<glyph unicode="c" horiz-adv-x="1024" d="M94 514q0 107 29.5 203.5t85 173.5t144.5 122.5t200 45.5q163 0 274.5 -93t118.5 -253h-133q-15 233 -281 233q-91 0 -161.5 -59t-107 -156.5t-36.5 -214.5q0 -183 84 -308.5t221 -125.5q119 0 196 66.5t85 173.5h133q-49 -353 -401 -353q-111 0 -199 45t-142 122.5 t-82 173.5t-28 204z" />
<glyph unicode="d" d="M94 518q0 82 14.5 158.5t47 147t80 122t119.5 82.5t161 31q106 0 203 -49.5t149 -137.5l4 5v602h123v-1248q0 -39 11 -231h-127l-7 152l-4 8q-63 -92 -154 -141.5t-198 -49.5q-88 0 -160.5 32.5t-120 86t-80.5 125.5t-47 148.5t-14 156.5zM227 532q0 -62 7.5 -120 t27.5 -120t51.5 -107t84 -74t120.5 -29q78 0 139 25.5t100 68t64.5 102.5t36 124t10.5 137q0 82 -18.5 152.5t-56.5 129t-103.5 92t-152.5 33.5q-67 0 -121 -24.5t-89 -64.5t-58 -94.5t-32.5 -111.5t-9.5 -119z" />
<glyph unicode="e" d="M102 514q0 107 29.5 203.5t85 173.5t144.5 122.5t200 45.5q125 0 217.5 -43.5t146.5 -123.5t79.5 -181t25.5 -226h-794q2 -85 22.5 -156t62 -127.5t110.5 -88t161 -31.5q108 0 191 69.5t106 176.5h129q-47 -183 -162.5 -271t-302.5 -88q-111 0 -199 45t-142 122.5 t-82 173.5t-28 204zM240 598h657q-11 157 -96 252.5t-238 95.5q-142 0 -226 -101t-97 -247z" />
<glyph unicode="f" horiz-adv-x="681" d="M45 915v113h207v219q0 133 58.5 194.5t189.5 61.5q18 0 36.5 -3.5t44.5 -10t35 -8.5v-99q-56 9 -75 9q-61 0 -97.5 -15.5t-51 -45.5t-18.5 -73q-1 -20 -1 -43q0 -26 2 -55v-131h233v-113h-233v-915h-123v915h-207z" />
<glyph unicode="g" d="M92 522q0 108 25 202t76 170.5t137.5 120.5t199.5 44q206 0 338 -191l4 9l7 151h127q-11 -193 -11 -231v-617q0 -173 -10 -239q-28 -177 -158 -260q-23 -15 -49 -27q-59 -28 -108.5 -37.5t-124.5 -9.5q-59 0 -114 8t-109.5 28t-94.5 50.5t-65 79.5t-25 110h133 q5 -44 32.5 -77t69.5 -51.5t89.5 -27t99.5 -8.5q124 0 216 80t95 205v193h-4q-43 -88 -136.5 -140.5t-196.5 -52.5q-90 0 -164 27t-125.5 74t-86.5 112.5t-51 142t-16 162.5zM225 532q0 -58 11.5 -115.5t37 -112t62.5 -96t91.5 -66.5t119.5 -25q68 0 124 24.5t92.5 65.5 t61.5 95.5t36 113.5t11 121q0 76 -21 147.5t-60 130.5t-103.5 95t-144.5 36t-143 -37.5t-100 -99.5t-56 -132.5t-19 -144.5z" />
<glyph unicode="h" d="M164 0v1479h123v-607h4q53 93 136 140t185 47q69 0 125.5 -17t93.5 -44t64.5 -65.5t42.5 -75.5t23.5 -80t11 -73t2.5 -61v-643h-123v664q0 133 -72 207.5t-198 74.5q-97 0 -165.5 -51t-99 -129t-30.5 -174v-592h-123z" />
<glyph unicode="i" horiz-adv-x="454" d="M156 1325v154h143v-154h-143zM166 0v1028h123v-1028h-123z" />
<glyph unicode="j" horiz-adv-x="454" d="M6 -281h6q111 0 132 39q22 38 22 190v14v73v993h123v-1073q0 -79 -1.5 -119.5t-10.5 -88.5t-26 -69t-49 -41.5t-80 -26.5q-34 -4 -81 -4q-17 0 -35 1v112zM156 1325v154h143v-154h-143z" />
<glyph unicode="k" horiz-adv-x="1024" d="M176 0v1479h123v-871l498 420h157l-520 -444l561 -584h-155l-541 557v-557h-123z" />
<glyph unicode="l" horiz-adv-x="454" d="M166 0v1479h123v-1479h-123z" />
<glyph unicode="m" horiz-adv-x="1820" d="M152 1028h127l6 -151l4 -5q53 93 136 140t185 47q120 0 210 -61.5t124 -163.5q63 100 152.5 162.5t201.5 62.5q69 0 125.5 -17t93.5 -44t64.5 -65.5t42.5 -75.5t23.5 -80t11 -73t2.5 -61v-643h-123v664q0 133 -72 207.5t-198 74.5q-97 0 -165.5 -51t-99 -129t-30.5 -174 v-592h-123v664q0 133 -72 207.5t-198 74.5q-97 0 -165.5 -51t-99 -129t-30.5 -174v-592h-123v797q0 56 -10 231z" />
<glyph unicode="n" d="M154 1028h127l6 -151l4 -5q53 93 136 140t185 47q69 0 125.5 -17t93.5 -44t64.5 -65.5t42.5 -75.5t23.5 -80t11 -73t2.5 -61v-643h-123v664q0 133 -72 207.5t-198 74.5q-97 0 -165.5 -51t-99 -129t-30.5 -174v-592h-123v797q0 56 -10 231z" />
<glyph unicode="o" d="M90 514q0 83 18 160.5t56.5 148t94 122.5t135.5 83t175 31t175.5 -31t135.5 -83t94 -122.5t57 -148t18 -160.5t-18 -160.5t-57 -148t-94 -122.5t-135.5 -83t-175.5 -31t-175 31t-135.5 83t-94 122.5t-56.5 148t-18 160.5zM223 514q0 -59 12 -118t39 -116t66 -100.5 t98 -70.5t131 -27t131 27t98 70.5t66 100.5t39 116t12 118t-12 118t-39 116t-66 100.5t-98 70.5t-131 27t-131 -27t-98 -70.5t-66 -100.5t-39 -116t-12 -118z" />
<glyph unicode="p" d="M133 1028h127l6 -151l4 -5q52 88 149.5 137.5t203.5 49.5q89 0 161 -31t119.5 -82.5t80 -122t46.5 -147t14 -158.5q0 -80 -14 -156.5t-46 -148t-79 -125.5t-118 -86.5t-158 -32.5q-112 0 -204 49t-155 142h-4v-553h-123v1190v8q0 47 -10 223zM266 539q0 -73 10.5 -137 t36 -124t64.5 -102.5t100 -68t139 -25.5q68 0 121 29t85 74.5t53 106.5t28.5 119.5t7.5 120.5t-10 119t-33.5 111.5t-58.5 94.5t-89.5 64.5t-121.5 24.5q-87 0 -152.5 -33.5t-104 -92t-57 -129t-18.5 -152.5z" />
<glyph unicode="q" d="M94 518q0 82 14.5 158.5t47 147t80 122t119.5 82.5t161 31q106 0 202.5 -48.5t149.5 -133.5v-7h4v7l7 151h127q-11 -193 -11 -231v-1188h-123v551h-4q-63 -93 -154.5 -142t-203.5 -49q-87 0 -158 32.5t-118 86.5t-79.5 125.5t-46.5 148t-14 156.5zM227 532 q0 -62 7.5 -120.5t28.5 -119.5t53 -106.5t85 -74.5t121 -29q78 0 139 25.5t100 68t64.5 102.5t36 124t10.5 137q0 82 -18.5 152.5t-56.5 129t-103.5 92t-152.5 33.5q-84 0 -147 -36.5t-98 -97.5t-52 -131.5t-17 -148.5z" />
<glyph unicode="r" horiz-adv-x="681" d="M154 1028h127l6 -151h4q28 78 91.5 128.5t139.5 53.5q14 1 32 1q36 0 91 -3v-119q-8 1 -35 4.5t-41 3.5q-134 0 -206.5 -88.5t-75.5 -239.5v-618h-123v797v8q0 47 -10 223z" />
<glyph unicode="s" horiz-adv-x="1024" d="M94 281h133q4 -55 29 -95.5t66 -62t87.5 -31.5t102.5 -10q109 0 188.5 52.5t79.5 152.5q0 40 -16.5 70.5t-42 50t-66 35t-78.5 25.5t-89 21q-22 5 -33 7q-60 14 -97.5 25.5t-86 34t-76 49t-47 69.5t-19.5 98q0 62 22 111.5t58.5 81.5t86 54t102 31t108.5 9 q354 0 375 -285h-133q-8 90 -78 131t-176 41q-97 0 -164.5 -41t-67.5 -125q0 -32 11 -55.5t35 -40.5t53 -29t73.5 -24.5t87.5 -22.5t103.5 -27t113.5 -36q80 -28 127 -92.5t47 -147.5t-36.5 -149t-98.5 -106t-137.5 -60.5t-159.5 -20.5q-70 0 -135.5 17.5t-122.5 53 t-92.5 98t-36.5 143.5z" />
<glyph unicode="t" horiz-adv-x="681" d="M47 915v113h205v219l123 53v-272h233v-113h-233v-688v-7q1 -66 35 -101q36 -37 106 -37q67 0 107 12v-106q-74 -19 -125 -19q-36 0 -67 4.5t-54 12.5t-41.5 19t-31 25.5t-22.5 30.5t-15 34.5t-9 37.5t-4.5 39.5t-1.5 41t0 40.5v20v641h-205z" />
<glyph unicode="u" d="M164 385v643h123v-663q0 -133 72 -208t198 -75q97 0 165.5 51t99 129t30.5 174v592h123v-797q0 -56 10 -231h-127l-6 152l-4 4q-53 -93 -136.5 -140t-185.5 -47q-69 0 -125.5 17t-93.5 44t-64.5 65.5t-42 75t-23.5 80t-11 73.5t-2 61z" />
<glyph unicode="v" horiz-adv-x="1024" d="M29 1028h135l354 -858l342 858h135l-407 -1028h-139z" />
<glyph unicode="w" horiz-adv-x="1705" d="M33 1028h135l307 -866h4l312 866h145l303 -858h4l297 858h135l-383 -1028h-116l-316 887h-4l-321 -887h-125z" />
<glyph unicode="x" horiz-adv-x="1024" d="M35 0l4 4l393 522l-379 502h164l301 -414l309 414h129l-368 -498l401 -530h-162l-329 446l-324 -446h-139z" />
<glyph unicode="y" horiz-adv-x="1024" d="M16 1028h150l346 -860l344 860h133l-567 -1421h-135l155 393z" />
<glyph unicode="z" horiz-adv-x="909" d="M82 0v113l600 802h-600v113h745v-113l-596 -802h596v-113h-745z" />
<glyph unicode="{" horiz-adv-x="569" d="M78 582v112q88 10 117.5 74.5t29.5 192.5v294q0 95 56.5 156t124.5 68h102v-103h-68q-82 -19 -82 -153v-293q0 -28 -3 -55t-8.5 -48.5t-13.5 -42.5t-16 -36.5t-18.5 -31t-19 -25.5t-18.5 -20t-15.5 -15t-13.5 -11l-7 -6q135 -101 133 -289v-291q0 -134 82 -153h68v-103 h-102q-68 7 -124.5 68t-56.5 156v292q0 62 -5.5 103.5t-20.5 78t-45 56.5t-76 25z" />
<glyph unicode="|" horiz-adv-x="454" d="M166 -512v2048h123v-2048h-123z" />
<glyph unicode="}" horiz-adv-x="569" d="M61 -94h68q82 19 82 153v293q0 28 3 55t8.5 48.5t13.5 42.5t16 36.5t18.5 31t19 25.5t18.5 20t15.5 15t12.5 11l8 6q-135 101 -133 289v291q0 134 -82 153h-68v103h103q68 -7 124 -68t56 -156v-292q0 -127 29.5 -191t118.5 -74v-112q-46 -5 -76.5 -25t-45.5 -57 t-20.5 -78.5t-5.5 -103.5v-295q0 -95 -56 -156t-124 -68h-103v103z" />
<glyph unicode="~" horiz-adv-x="1351" d="M164 442q24 35 39.5 56.5t45.5 54.5t57 52t66 33.5t81 14.5q81 0 239 -73q7 -3 26.5 -12t27.5 -12.5t25 -11t25.5 -11t23 -9t23.5 -8t21 -5.5t21 -4t18 -1q109 0 203 178l82 -70q-115 -223 -287 -223q-12 0 -26.5 2t-31.5 6t-31 7.5t-35 11t-32.5 11.5t-34 13t-30.5 12 t-30 12.5t-25 10.5q-11 5 -50.5 25t-67 29.5t-54.5 9.5q-31 0 -61 -14t-50 -30.5t-44.5 -48.5t-35.5 -49.5t-31 -52.5z" />
<glyph unicode="&#xa1;" horiz-adv-x="796" d="M315 -369l27 1129h115l26 -1129h-168zM317 934v176h164v-176h-164z" />
<glyph unicode="&#xa2;" d="M143 514q0 107 29.5 203.5t85 173.5t144.5 122.5t200 45.5q40 0 70 -6l71 256h91l-78 -275q104 -36 168.5 -119.5t70.5 -201.5h-133q-9 159 -137 209l-229 -824q43 -16 86 -16q119 0 195.5 66.5t84.5 173.5h133q-49 -353 -401 -353q-70 0 -129 19l-74 -260h-92l84 295 q-117 65 -178.5 197t-61.5 294zM276 516q0 -118 37.5 -217t104.5 -154l223 797q-40 4 -59 4q-137 0 -221.5 -125t-84.5 -305z" />
<glyph unicode="&#xa3;" d="M94 762v123h154q-2 64 -0.5 125t14 117t32.5 105t55.5 88.5t82.5 68t114 44t150 15.5q162 0 271 -78.5t112 -214.5h-143q-3 78 -74.5 124t-181.5 46q-152 0 -226.5 -97.5t-74.5 -256.5v-86h332v-123h-332v-639h655v-123h-911v123h123v639h-152z" />
<glyph unicode="&#xa4;" d="M55 614q0 91 23.5 164t75.5 146l-88 88l106 108l90 -88q133 101 316 101q152 0 299 -101l90 88l106 -108l-88 -88q52 -74 75 -150t23 -170q0 -82 -24 -150t-74 -143l88 -86l-106 -108l-90 88q-139 -103 -318 -103q-150 0 -297 103l-90 -88l-106 108l88 86 q-99 144 -99 303zM199 614q-3 -148 107 -258t259 -110q154 0 264.5 109.5t110.5 265.5q0 148 -107.5 259.5t-254.5 108.5q-160 3 -271 -106.5t-108 -268.5z" />
<glyph unicode="&#xa5;" d="M2 1417h170l412 -653l409 653h144l-496 -770h408v-123h-410v-123h410v-122h-410v-279h-133v279h-416v122h416v123h-416v123h412z" />
<glyph unicode="&#xa6;" horiz-adv-x="454" d="M166 -358v716h123v-716h-123zM166 666v716h123v-716h-123z" />
<glyph unicode="&#xa7;" d="M227 735q0 82 65 145.5t154 102.5q-91 49 -141.5 105t-50.5 143q0 74 31 130t83.5 87t114 46t131.5 15q63 0 215 -39v-112q-34 15 -99 27t-103 12q-42 0 -81 -7.5t-76.5 -24.5t-60 -50t-22.5 -78q0 -43 28 -77.5t73 -58t99.5 -45.5t109 -45.5t99.5 -51t73 -69.5t28 -95 q0 -82 -63 -145.5t-152 -104.5q106 -40 166.5 -100.5t60.5 -159.5q0 -80 -33.5 -142t-90 -99t-125 -56t-144.5 -19q-145 0 -264 45v117q118 -49 254 -49q50 0 95.5 10.5t86 33t64.5 63t24 94.5q0 45 -30.5 78t-78.5 53.5t-106.5 39t-117.5 40.5t-107 51t-78.5 77.5 t-30.5 112.5zM360 748q0 -23 11.5 -44.5t25 -35.5t41.5 -30.5t42 -23t48 -20.5t39 -16q10 5 49.5 25.5t56.5 32t43 33t37 46.5t11 55q0 38 -27 67.5t-59.5 44t-79 33t-66.5 29.5q-11 -7 -40.5 -24t-41.5 -25t-33.5 -26t-31 -33t-17.5 -38t-8 -50z" />
<glyph unicode="&#xa8;" horiz-adv-x="569" d="M31 1268v180h151v-180h-151zM387 1268v180h152v-180h-152z" />
<glyph unicode="&#xa9;" horiz-adv-x="1638" d="M49 741q0 125 39 242t110.5 211.5t166.5 165.5t212.5 110t243.5 39q156 0 298.5 -61t245 -164t163.5 -245.5t61 -297.5q0 -210 -103 -387.5t-279.5 -281t-385.5 -103.5q-157 0 -300 61t-246.5 164.5t-164.5 246.5t-61 300zM172 741q0 -140 48.5 -261t134 -206t206 -133.5 t260.5 -48.5q139 0 259 48.5t204.5 133.5t133 206t48.5 261q0 281 -182 463t-463 182q-186 0 -334.5 -82.5t-231.5 -230t-83 -332.5zM430 748q0 194 113.5 317t306.5 123q142 0 241 -77.5t119 -213.5h-112q-17 82 -86 135t-160 53q-144 0 -221.5 -96.5t-77.5 -238.5 q0 -88 33 -164.5t104 -128t166 -51.5q90 0 160 55.5t82 140.5h112q-12 -135 -114.5 -217t-239.5 -82q-191 0 -308.5 126.5t-117.5 318.5z" />
<glyph unicode="&#xaa;" horiz-adv-x="614" d="M47 1047q0 61 36.5 107.5t98.5 70.5q40 16 89.5 21t115 5t88.5 2v56q-6 72 -39.5 95t-109.5 23q-33 0 -54.5 -3t-45 -11.5t-37 -28t-17.5 -49.5h-94q13 90 80 132t170 42q114 0 176 -49.5t61 -152.5v-338q0 -19 3.5 -52t4.5 -43h-94l-6 82h-4q-23 -41 -78.5 -70.5 t-120.5 -29.5q-96 0 -159.5 51.5t-63.5 139.5zM150 1047q0 -60 34.5 -84.5t100.5 -24.5q202 0 194 238h-4v-5q-14 -1 -50 -1t-60.5 -1t-60 -4t-60 -11.5t-47.5 -21t-35 -34.5t-12 -51z" />
<glyph unicode="&#xab;" d="M209 547l217 399h104l-190 -399l188 -400h-102zM578 547l217 399h104l-190 -399l188 -400h-102z" />
<glyph unicode="&#xac;" horiz-adv-x="1351" d="M164 651v123h1024v-545h-123v422h-901z" />
<glyph unicode="&#xad;" horiz-adv-x="569" d="M27 485v123h516v-123h-516z" />
<glyph unicode="&#xae;" horiz-adv-x="1638" d="M49 741q0 125 39 242t110.5 211.5t166.5 165.5t212.5 110t243.5 39q156 0 298.5 -61t245 -164t163.5 -245.5t61 -297.5q0 -210 -103 -387.5t-279.5 -281t-385.5 -103.5q-157 0 -300 61t-246.5 164.5t-164.5 246.5t-61 300zM172 741q0 -140 48.5 -261t134 -206t206 -133.5 t260.5 -48.5q139 0 259 48.5t204.5 133.5t133 206t48.5 261q0 281 -182 463t-463 182q-186 0 -334.5 -82.5t-231.5 -230t-83 -332.5zM532 305v881h379q166 0 237 -60.5t71 -183.5q0 -225 -273 -246l262 -391h-127l-247 391h-189v-391h-113zM645 799h156q10 0 47 -0.5t52 0 t47.5 3t48 8t38.5 16t34 26t19.5 39t8.5 53.5q0 44 -17 73t-49 42.5t-64.5 18.5t-78.5 5h-242v-284z" />
<glyph unicode="&#xaf;" horiz-adv-x="569" d="M35 1325v123h502v-123h-502z" />
<glyph unicode="&#xb0;" horiz-adv-x="819" d="M102 1141q-1 126 89.5 216.5t218.5 90.5q126 0 216.5 -90.5t90.5 -216.5q0 -127 -90.5 -217t-216.5 -90q-128 0 -218 90t-90 217zM195 1141q0 -94 60.5 -154.5t154.5 -60.5q93 0 154 61t61 154q0 92 -61.5 153.5t-155.5 61.5q-92 0 -153 -61.5t-60 -153.5z" />
<glyph unicode="&#xb1;" horiz-adv-x="1351" d="M164 0v123h1024v-123h-1024zM164 553v123h450v352h123v-352h451v-123h-451v-348h-123v348h-450z" />
<glyph unicode="&#xb2;" horiz-adv-x="681" d="M68 580v84q55 45 123 109.5t147 148t131.5 166t52.5 135.5q0 57 -46 92t-120 35q-81 0 -131.5 -43.5t-50.5 -102.5h-98q0 112 79.5 178t202.5 66q117 0 196 -57t79 -162q0 -47 -24 -103t-59 -105t-83.5 -104t-89 -94.5t-84.5 -82.5t-62 -62h414v-98h-577z" />
<glyph unicode="&#xb3;" horiz-adv-x="681" d="M43 807h111q1 -61 55.5 -101t134.5 -40q94 0 150.5 40.5t56.5 112.5q0 91 -74.5 131t-177.5 25v98q98 -10 168 27.5t70 122.5q0 56 -52.5 91.5t-134.5 35.5q-163 0 -184 -127h-111q0 102 84.5 163.5t198.5 61.5q83 0 150 -22t113 -75.5t46 -131.5q0 -75 -53.5 -126 t-134.5 -67v-4q90 -15 146.5 -72t56.5 -141q0 -76 -47.5 -133t-118 -83t-150.5 -26q-129 0 -214.5 62t-88.5 178z" />
<glyph unicode="&#xb4;" horiz-adv-x="569" d="M178 1155l187 293h163l-260 -293h-90z" />
<glyph unicode="&#xb5;" d="M164 -393v1421h123v-663q0 -133 72 -208t198 -75q97 0 165.5 51t99 129t30.5 174v592h123v-797q0 -56 10 -231h-127l-6 152l-4 4q-53 -93 -136.5 -140t-185.5 -47q-107 0 -239 51v-413h-123z" />
<glyph unicode="&#xb6;" horiz-adv-x="1331" d="M135 1077q0 192 120.5 297t336.5 105h444v-1778h-133v1655h-241v-1655h-134v987q-103 -1 -193.5 52t-145 143.5t-54.5 193.5z" />
<glyph unicode="&#xb7;" horiz-adv-x="569" d="M203 426v176h164v-176h-164z" />
<glyph unicode="&#xb8;" horiz-adv-x="569" d="M57 -330l15 58q100 -39 182 -52q15 -2 45 5.5t41 17.5q16 14 20.5 27.5t4.5 37.5q0 39 -29 56.5t-70 17.5q-10 0 -21 -1t-24.5 -2.5t-21.5 -2.5l57 178h47l-31 -112q44 0 76 -4.5t64.5 -18t49.5 -42.5t17 -73q0 -66 -59 -100.5t-131 -34.5q-25 0 -47 1.5t-36 3.5t-36 7 t-31.5 8t-39 12t-42.5 13z" />
<glyph unicode="&#xb9;" horiz-adv-x="681" d="M152 1192v92q115 42 213 133h100v-837h-105v739q-84 -73 -208 -127z" />
<glyph unicode="&#xba;" horiz-adv-x="684" d="M31 1184q0 62 19 119t56 104t98 74.5t138 27.5t138 -27.5t98 -74.5t56 -104t19 -119q0 -86 -32 -158t-104.5 -121t-174.5 -49t-174.5 49t-104.5 121t-32 158zM133 1184q0 -61 21 -115t70 -92.5t118 -38.5q100 0 154.5 75t54.5 171q0 60 -21.5 113.5t-70.5 91.5t-117 38 q-101 0 -155 -74t-54 -169z" />
<glyph unicode="&#xbb;" d="M240 147l190 400l-188 399h102l217 -399l-217 -400h-104zM608 147l191 400l-189 399h103l217 -399l-217 -400h-105z" />
<glyph unicode="&#xbc;" horiz-adv-x="1708" d="M217 1192v92q115 42 213 133h100v-837h-104v739q-83 -72 -209 -127zM373 0l854 1448h108l-850 -1448h-112zM848 199v63l412 588h126v-553h130v-98h-130v-199h-104v199h-434zM991 297h291v436h-4z" />
<glyph unicode="&#xbd;" horiz-adv-x="1708" d="M217 1192v92q115 42 213 133h100v-837h-104v739q-83 -72 -209 -127zM373 0l854 1448h108l-850 -1448h-112zM1030 0v84q55 45 123 109t147.5 148t132 166.5t52.5 135.5q0 57 -46 92t-120 35q-81 0 -131.5 -43t-50.5 -102h-99q0 111 80 177t203 66q117 0 195.5 -57 t78.5 -162q0 -56 -31 -122t-84.5 -130.5t-102 -116t-107 -107.5t-76.5 -75h414v-98h-578z" />
<glyph unicode="&#xbe;" horiz-adv-x="1708" d="M43 807h111q1 -61 55.5 -101t134.5 -40q94 0 150.5 40.5t56.5 112.5q0 91 -74.5 131t-177.5 25v98q98 -10 168 27.5t70 122.5q0 56 -52.5 91.5t-134.5 35.5q-163 0 -184 -127h-111q0 102 84.5 163.5t198.5 61.5q83 0 150 -22t113 -75.5t46 -131.5q0 -75 -53.5 -126 t-134.5 -67v-4q90 -15 146.5 -72t56.5 -141q0 -76 -47.5 -133t-118 -83t-150.5 -26q-129 0 -214.5 62t-88.5 178zM373 0l854 1448h108l-850 -1448h-112zM848 199v63l412 588h126v-553h130v-98h-130v-199h-104v199h-434zM991 297h291v436h-4z" />
<glyph unicode="&#xbf;" horiz-adv-x="1024" d="M152 -27q0 50 12 95.5t27.5 77.5t48 72.5t55 63.5t67.5 66q20 20 41 41.5t34.5 34.5t29.5 28.5t24.5 25t19 22.5t14.5 21t10.5 22t6.5 24t2.5 27t-1.5 33v143h123v-221q-1 -39 -23 -79t-55.5 -75t-74 -71.5t-80.5 -75t-73.5 -79t-54 -90.5t-20.5 -102q0 -69 27.5 -119.5 t76 -77t104.5 -38.5t123 -12q91 0 193 30v-125q-90 -28 -225 -28q-88 0 -165 22.5t-137.5 66.5t-95 115t-34.5 162zM522 934v176h164v-176h-164z" />
<glyph unicode="&#xc0;" horiz-adv-x="1366" d="M18 0l586 1479h156l590 -1479h-146l-157 399h-736l-155 -399h-138zM354 522h645l-319 834zM440 1898h164l187 -292h-91z" />
<glyph unicode="&#xc1;" horiz-adv-x="1366" d="M18 0l586 1479h156l590 -1479h-146l-157 399h-736l-155 -399h-138zM354 522h645l-319 834zM578 1606l186 292h164l-260 -292h-90z" />
<glyph unicode="&#xc2;" horiz-adv-x="1366" d="M18 0l586 1479h156l590 -1479h-146l-157 399h-736l-155 -399h-138zM354 522h645l-319 834zM406 1602l204 296h150l203 -296h-97l-182 217l-184 -217h-94z" />
<glyph unicode="&#xc3;" horiz-adv-x="1366" d="M18 0l586 1479h156l590 -1479h-146l-157 399h-736l-155 -399h-138zM354 522h645l-319 834zM403 1683q19 86 77 131.5t145 32.5q21 -2 82 -22q74 -19 79 -19q35 0 63 18t40 50h78q-19 -76 -66.5 -125t-120.5 -49q-32 0 -92 22q-65 21 -110 21q-34 0 -62 -15.5t-35 -44.5 h-78z" />
<glyph unicode="&#xc4;" horiz-adv-x="1366" d="M18 0l586 1479h156l590 -1479h-146l-157 399h-736l-155 -399h-138zM354 522h645l-319 834zM430 1718v180h152v-180h-152zM786 1718v180h152v-180h-152z" />
<glyph unicode="&#xc5;" horiz-adv-x="1366" d="M18 0l586 1479h156l590 -1479h-146l-157 399h-736l-155 -399h-138zM354 522h645l-319 834zM504 1780q0 73 54 126.5t126 53.5q74 0 127 -53t53 -127q0 -72 -53.5 -126.5t-126.5 -54.5q-72 0 -126 54.5t-54 126.5zM571 1780q0 -42 35.5 -77.5t77.5 -35.5q41 0 77 36t36 77 q0 43 -35 77.5t-78 34.5t-78 -34t-35 -78z" />
<glyph unicode="&#xc6;" horiz-adv-x="2048" d="M16 0l856 1479h1022v-123h-796l88 -531h672v-123h-654l96 -579h613v-123h-729l-70 401h-717l-233 -401h-148zM467 524h631l-142 832h-4z" />
<glyph unicode="&#xc7;" horiz-adv-x="1366" d="M125 739q0 124 23 236t73 210.5t123.5 169.5t180.5 112.5t237 41.5q94 0 176.5 -22t151.5 -66t112.5 -118t50.5 -170h-143q-18 127 -114.5 190t-233.5 63q-110 0 -196.5 -38.5t-141.5 -101.5t-91 -149t-50.5 -174t-14.5 -184t14.5 -184t50.5 -174t91 -149t141.5 -101.5 t196.5 -38.5q85 0 159 27t130.5 89t74.5 150h144q-21 -120 -97.5 -210t-183 -134.5t-227.5 -44.5q-15 0 -19 2l-20 -73q44 0 76 -4.5t64.5 -18t49.5 -42.5t17 -73q0 -66 -59.5 -100.5t-131.5 -34.5q-25 0 -47 1.5t-36 3.5t-35.5 7t-31.5 8t-38.5 12t-42.5 13l14 58 q99 -39 183 -52q15 -2 45 5.5t41 17.5q16 14 20 27t4 38q0 39 -28.5 56.5t-69.5 17.5q-10 0 -21.5 -1t-25 -2.5t-21.5 -2.5l47 143q-146 12 -257.5 78t-179 171.5t-101 235t-33.5 279.5z" />
<glyph unicode="&#xc8;" horiz-adv-x="1251" d="M209 0v1479h878v-123h-745v-531h717v-123h-717v-579h776v-123h-909zM383 1898h164l186 -292h-90z" />
<glyph unicode="&#xc9;" horiz-adv-x="1251" d="M209 0v1479h878v-123h-745v-531h717v-123h-717v-579h776v-123h-909zM520 1606l187 292h163l-260 -292h-90z" />
<glyph unicode="&#xca;" horiz-adv-x="1251" d="M209 0v1479h878v-123h-745v-531h717v-123h-717v-579h776v-123h-909zM348 1602l205 296h149l203 -296h-96l-182 217l-185 -217h-94z" />
<glyph unicode="&#xcb;" horiz-adv-x="1251" d="M209 0v1479h878v-123h-745v-531h717v-123h-717v-579h776v-123h-909zM373 1718v180h151v-180h-151zM729 1718v180h152v-180h-152z" />
<glyph unicode="&#xcc;" horiz-adv-x="569" d="M41 1898h164l186 -292h-90zM219 0v1485h133v-1485h-133z" />
<glyph unicode="&#xcd;" horiz-adv-x="569" d="M178 1606l187 292h163l-260 -292h-90zM219 0v1485h133v-1485h-133z" />
<glyph unicode="&#xce;" horiz-adv-x="569" d="M6 1602l205 296h149l203 -296h-96l-182 217l-185 -217h-94zM219 0v1485h133v-1485h-133z" />
<glyph unicode="&#xcf;" horiz-adv-x="569" d="M31 1718v180h151v-180h-151zM219 0v1485h133v-1485h-133zM387 1718v180h152v-180h-152z" />
<glyph unicode="&#xd0;" horiz-adv-x="1478" d="M47 768v92h139v619h400q367 0 564.5 -188.5t197.5 -551.5t-197.5 -551t-564.5 -188h-400v768h-139zM319 123h299q301 0 443.5 162t142.5 454q0 320 -176.5 473t-499.5 144h-209v-496h443v-92h-443v-645z" />
<glyph unicode="&#xd1;" horiz-adv-x="1478" d="M188 0v1479h152l815 -1301h4v1301h133v-1479h-168l-798 1278h-4v-1278h-134zM459 1683q19 86 76.5 131.5t144.5 32.5q21 -2 82 -22q74 -19 80 -19q34 0 62 18t40 50h78q-19 -76 -66 -125t-120 -49q-32 0 -93 22q-65 21 -110 21q-34 0 -61.5 -15.5t-34.5 -44.5h-78z" />
<glyph unicode="&#xd2;" horiz-adv-x="1593" d="M137 739q0 231 76 404t226 269.5t358 96.5t358 -96.5t225.5 -269.5t75.5 -404t-75.5 -404t-225.5 -269.5t-358 -96.5t-358 96.5t-226 269.5t-76 404zM281 739q0 -100 18 -192t58 -175.5t98.5 -145t146.5 -98t195 -36.5t195 36.5t146.5 98t98.5 145t58 175.5t18 192 t-18 192t-58 175.5t-98.5 145t-146.5 98t-195 36.5t-195 -36.5t-146.5 -98t-98.5 -145t-58 -175.5t-18 -192zM553 1898h164l186 -292h-90z" />
<glyph unicode="&#xd3;" horiz-adv-x="1593" d="M137 739q0 231 76 404t226 269.5t358 96.5t358 -96.5t225.5 -269.5t75.5 -404t-75.5 -404t-225.5 -269.5t-358 -96.5t-358 96.5t-226 269.5t-76 404zM281 739q0 -100 18 -192t58 -175.5t98.5 -145t146.5 -98t195 -36.5t195 36.5t146.5 98t98.5 145t58 175.5t18 192 t-18 192t-58 175.5t-98.5 145t-146.5 98t-195 36.5t-195 -36.5t-146.5 -98t-98.5 -145t-58 -175.5t-18 -192zM690 1606l187 292h163l-260 -292h-90z" />
<glyph unicode="&#xd4;" horiz-adv-x="1593" d="M137 739q0 231 76 404t226 269.5t358 96.5t358 -96.5t225.5 -269.5t75.5 -404t-75.5 -404t-225.5 -269.5t-358 -96.5t-358 96.5t-226 269.5t-76 404zM281 739q0 -100 18 -192t58 -175.5t98.5 -145t146.5 -98t195 -36.5t195 36.5t146.5 98t98.5 145t58 175.5t18 192 t-18 192t-58 175.5t-98.5 145t-146.5 98t-195 36.5t-195 -36.5t-146.5 -98t-98.5 -145t-58 -175.5t-18 -192zM518 1602l205 296h149l203 -296h-96l-182 217l-185 -217h-94z" />
<glyph unicode="&#xd5;" horiz-adv-x="1593" d="M137 739q0 231 76 404t226 269.5t358 96.5t358 -96.5t225.5 -269.5t75.5 -404t-75.5 -404t-225.5 -269.5t-358 -96.5t-358 96.5t-226 269.5t-76 404zM281 739q0 -100 18 -192t58 -175.5t98.5 -145t146.5 -98t195 -36.5t195 36.5t146.5 98t98.5 145t58 175.5t18 192 t-18 192t-58 175.5t-98.5 145t-146.5 98t-195 36.5t-195 -36.5t-146.5 -98t-98.5 -145t-58 -175.5t-18 -192zM516 1683q19 86 76.5 131.5t144.5 32.5q21 -2 82 -22q74 -19 80 -19q34 0 62 18t40 50h78q-19 -76 -66 -125t-120 -49q-31 0 -92 22q-65 21 -111 21 q-34 0 -61.5 -15.5t-34.5 -44.5h-78z" />
<glyph unicode="&#xd6;" horiz-adv-x="1593" d="M137 739q0 231 76 404t226 269.5t358 96.5t358 -96.5t225.5 -269.5t75.5 -404t-75.5 -404t-225.5 -269.5t-358 -96.5t-358 96.5t-226 269.5t-76 404zM281 739q0 -100 18 -192t58 -175.5t98.5 -145t146.5 -98t195 -36.5t195 36.5t146.5 98t98.5 145t58 175.5t18 192 t-18 192t-58 175.5t-98.5 145t-146.5 98t-195 36.5t-195 -36.5t-146.5 -98t-98.5 -145t-58 -175.5t-18 -192zM543 1718v180h151v-180h-151zM899 1718v180h152v-180h-152z" />
<glyph unicode="&#xd7;" horiz-adv-x="1351" d="M164 86l438 432l-438 432l76 78l438 -434l434 434l76 -78l-434 -432l434 -432l-76 -74l-434 430l-438 -430z" />
<glyph unicode="&#xd8;" horiz-adv-x="1593" d="M111 25l172 192q-146 196 -146 522q0 231 76 404t226 269.5t358 96.5q292 0 467 -188l168 188l55 -51l-174 -198q143 -199 143 -521q0 -231 -75.5 -404t-225.5 -269.5t-358 -96.5q-288 0 -463 187l-164 -187zM281 739q0 -250 100 -411l788 886q-136 172 -372 172 q-107 0 -195 -36.5t-146.5 -98t-98.5 -145t-58 -175.5t-18 -192zM428 260q135 -168 369 -168q107 0 195 36.5t146.5 98t98.5 145t58 175.5t18 192q0 240 -99 410z" />
<glyph unicode="&#xd9;" horiz-adv-x="1478" d="M199 520v959h133v-957q8 -201 116 -315.5t291 -114.5t292 114.5t116 315.5v957h133v-959q-2 -120 -36.5 -220t-100.5 -174t-169.5 -115.5t-234.5 -41.5t-234 41.5t-169 115.5t-100.5 174t-36.5 220zM496 1898h163l187 -292h-90z" />
<glyph unicode="&#xda;" horiz-adv-x="1478" d="M199 520v959h133v-957q8 -201 116 -315.5t291 -114.5t292 114.5t116 315.5v957h133v-959q-2 -120 -36.5 -220t-100.5 -174t-169.5 -115.5t-234.5 -41.5t-234 41.5t-169 115.5t-100.5 174t-36.5 220zM633 1606l186 292h164l-260 -292h-90z" />
<glyph unicode="&#xdb;" horiz-adv-x="1478" d="M199 520v959h133v-957q8 -201 116 -315.5t291 -114.5t292 114.5t116 315.5v957h133v-959q-2 -120 -36.5 -220t-100.5 -174t-169.5 -115.5t-234.5 -41.5t-234 41.5t-169 115.5t-100.5 174t-36.5 220zM461 1602l205 296h149l203 -296h-96l-183 217l-184 -217h-94z" />
<glyph unicode="&#xdc;" horiz-adv-x="1478" d="M199 520v959h133v-957q8 -201 116 -315.5t291 -114.5t292 114.5t116 315.5v957h133v-959q-2 -120 -36.5 -220t-100.5 -174t-169.5 -115.5t-234.5 -41.5t-234 41.5t-169 115.5t-100.5 174t-36.5 220zM485 1718v180h152v-180h-152zM842 1718v180h151v-180h-151z" />
<glyph unicode="&#xdd;" horiz-adv-x="1251" d="M16 1479h170l453 -715l453 715h143l-541 -836v-643h-133v639zM520 1606l187 292h163l-260 -292h-90z" />
<glyph unicode="&#xde;" horiz-adv-x="1251" d="M205 0v1479h133v-318h293q90 0 163 -9.5t147.5 -37t125 -72t82 -121t31.5 -178.5t-31.5 -178t-82 -121t-125 -72.5t-147.5 -36.5t-163 -9h-293v-326h-133zM338 449h324q374 0 374 294q0 295 -374 295h-324v-589z" />
<glyph unicode="&#xdf;" horiz-adv-x="1251" d="M178 0v1042q2 217 106 342t314 125q98 0 180 -35t135.5 -109t53.5 -173q0 -45 -25 -90.5t-60.5 -81.5t-71 -69.5t-60.5 -67t-25 -60.5q0 -40 24.5 -74t63.5 -59.5t86 -50.5t94 -54.5t86 -64.5t63.5 -88t24.5 -117q0 -159 -101 -252.5t-251 -93.5q-148 0 -237 85.5 t-95 234.5h133q-3 -93 51.5 -150t143.5 -57q104 0 163.5 57t59.5 170q0 48 -24.5 87.5t-63.5 68t-86 55.5t-94 54.5t-86 59t-63.5 76.5t-24.5 99q0 49 25 93.5t60.5 79t71 67t60.5 70.5t25 77q0 96 -75 148.5t-175 52.5q-65 0 -115.5 -24.5t-81 -63.5t-50.5 -93 t-27.5 -106.5t-8.5 -110.5v-999h-123z" />
<glyph unicode="&#xe0;" horiz-adv-x="1024" d="M74 287q0 102 56 180t151 117q62 27 135 36t185.5 9t143.5 2v94q-9 121 -69 171t-174 50q-232 0 -252 -178h-131q11 77 45 134t85.5 91t115 50t139.5 16q176 0 271.5 -84t92.5 -256v-488q-1 -36 0.5 -74.5t5.5 -89t5 -67.5h-127l-4 152h-5l-6 -15q-35 -67 -127.5 -117.5 t-193.5 -50.5q-147 0 -244.5 85.5t-97.5 232.5zM207 287q0 -99 65.5 -152t165.5 -53q78 0 136 25t91.5 66t53.5 99t25 117.5t1 128.5q-21 -1 -72.5 -1.5t-86 -1t-87.5 -5.5t-89.5 -13t-77.5 -25t-66 -40.5t-42 -60.5t-17 -84zM268 1448h164l186 -293h-90z" />
<glyph unicode="&#xe1;" horiz-adv-x="1024" d="M74 287q0 102 56 180t151 117q62 27 135 36t185.5 9t143.5 2v94q-9 121 -69 171t-174 50q-232 0 -252 -178h-131q11 77 45 134t85.5 91t115 50t139.5 16q176 0 271.5 -84t92.5 -256v-488q-1 -36 0.5 -74.5t5.5 -89t5 -67.5h-127l-4 152h-5l-6 -15q-35 -67 -127.5 -117.5 t-193.5 -50.5q-147 0 -244.5 85.5t-97.5 232.5zM207 287q0 -99 65.5 -152t165.5 -53q78 0 136 25t91.5 66t53.5 99t25 117.5t1 128.5q-21 -1 -72.5 -1.5t-86 -1t-87.5 -5.5t-89.5 -13t-77.5 -25t-66 -40.5t-42 -60.5t-17 -84zM406 1155l186 293h164l-260 -293h-90z" />
<glyph unicode="&#xe2;" horiz-adv-x="1024" d="M74 287q0 102 56 180t151 117q62 27 135 36t185.5 9t143.5 2v94q-9 121 -69 171t-174 50q-232 0 -252 -178h-131q11 77 45 134t85.5 91t115 50t139.5 16q176 0 271.5 -84t92.5 -256v-488q-1 -36 0.5 -74.5t5.5 -89t5 -67.5h-127l-4 152h-5l-6 -15q-35 -67 -127.5 -117.5 t-193.5 -50.5q-147 0 -244.5 85.5t-97.5 232.5zM207 287q0 -99 65.5 -152t165.5 -53q78 0 136 25t91.5 66t53.5 99t25 117.5t1 128.5q-21 -1 -72.5 -1.5t-86 -1t-87.5 -5.5t-89.5 -13t-77.5 -25t-66 -40.5t-42 -60.5t-17 -84zM233 1151l205 297h150l203 -297h-97l-182 217 l-184 -217h-95z" />
<glyph unicode="&#xe3;" horiz-adv-x="1024" d="M74 287q0 102 56 180t151 117q62 27 135 36t185.5 9t143.5 2v94q-9 121 -69 171t-174 50q-232 0 -252 -178h-131q11 77 45 134t85.5 91t115 50t139.5 16q176 0 271.5 -84t92.5 -256v-488q-1 -36 0.5 -74.5t5.5 -89t5 -67.5h-127l-4 152h-5l-6 -15q-35 -67 -127.5 -117.5 t-193.5 -50.5q-147 0 -244.5 85.5t-97.5 232.5zM207 287q0 -99 65.5 -152t165.5 -53q78 0 136 25t91.5 66t53.5 99t25 117.5t1 128.5q-21 -1 -72.5 -1.5t-86 -1t-87.5 -5.5t-89.5 -13t-77.5 -25t-66 -40.5t-42 -60.5t-17 -84zM231 1233q19 86 77 131.5t145 32.5 q16 -2 82 -23q70 -18 79 -18q35 0 63 18t40 49h78q-19 -76 -66.5 -125t-120.5 -49q-29 0 -92 23q-62 20 -110 20q-34 0 -62 -15t-35 -44h-78z" />
<glyph unicode="&#xe4;" horiz-adv-x="1024" d="M74 287q0 102 56 180t151 117q62 27 135 36t185.5 9t143.5 2v94q-9 121 -69 171t-174 50q-232 0 -252 -178h-131q11 77 45 134t85.5 91t115 50t139.5 16q176 0 271.5 -84t92.5 -256v-488q-1 -36 0.5 -74.5t5.5 -89t5 -67.5h-127l-4 152h-5l-6 -15q-35 -67 -127.5 -117.5 t-193.5 -50.5q-147 0 -244.5 85.5t-97.5 232.5zM207 287q0 -99 65.5 -152t165.5 -53q78 0 136 25t91.5 66t53.5 99t25 117.5t1 128.5q-21 -1 -72.5 -1.5t-86 -1t-87.5 -5.5t-89.5 -13t-77.5 -25t-66 -40.5t-42 -60.5t-17 -84zM258 1268v180h152v-180h-152zM614 1268v180h152 v-180h-152z" />
<glyph unicode="&#xe5;" horiz-adv-x="1024" d="M74 287q0 102 56 180t151 117q62 27 135 36t185.5 9t143.5 2v94q-9 121 -69 171t-174 50q-232 0 -252 -178h-131q11 77 45 134t85.5 91t115 50t139.5 16q176 0 271.5 -84t92.5 -256v-488q-1 -36 0.5 -74.5t5.5 -89t5 -67.5h-127l-4 152h-5l-6 -15q-35 -67 -127.5 -117.5 t-193.5 -50.5q-147 0 -244.5 85.5t-97.5 232.5zM207 287q0 -99 65.5 -152t165.5 -53q78 0 136 25t91.5 66t53.5 99t25 117.5t1 128.5q-21 -1 -72.5 -1.5t-86 -1t-87.5 -5.5t-89.5 -13t-77.5 -25t-66 -40.5t-42 -60.5t-17 -84zM332 1329q0 73 54 126.5t126 53.5 q74 0 127 -53.5t53 -126.5q0 -72 -53.5 -126t-126.5 -54q-72 0 -126 54t-54 126zM399 1329q0 -41 35.5 -76.5t77.5 -35.5q41 0 77 35.5t36 76.5q0 43 -35 78t-78 35t-78 -34.5t-35 -78.5z" />
<glyph unicode="&#xe6;" horiz-adv-x="1705" d="M74 287q0 99 56 169t151 111q48 21 109.5 31.5t118 11t119.5 1t115 1.5v113q-9 121 -68 171t-173 50q-232 0 -252 -178h-131q11 77 45 134t85.5 91t115 50t139.5 16q115 -8 207 -63t114 -152h4q44 102 131 156t185 59q118 0 206 -43.5t140 -121.5t77 -176.5t25 -217.5 h-716q-2 -82 12 -153.5t44.5 -132.5t87.5 -96.5t134 -35.5q108 0 191 69.5t106 176.5h129q-46 -180 -155.5 -269.5t-268.5 -89.5q-116 9 -207 71t-135 173q-42 -115 -147.5 -174.5t-251.5 -69.5q-147 0 -244.5 85.5t-97.5 232.5zM207 258q0 -57 38.5 -98.5t90 -59.5 t106.5 -18q76 0 132 23.5t89 61.5t52 94t24.5 112t3.5 125l-157 2q-49 0 -81 -1t-75.5 -6t-72 -14.5t-60 -27.5t-49 -43t-29.5 -63t-12 -87zM877 612h583q0 147 -73 240.5t-226 93.5q-87 0 -155 -52.5t-100 -128t-29 -153.5z" />
<glyph unicode="&#xe7;" horiz-adv-x="1024" d="M94 514q0 107 29.5 203.5t85 173.5t144.5 122.5t200 45.5q163 0 274.5 -93t118.5 -253h-133q-15 233 -281 233q-91 0 -161.5 -59t-107 -156.5t-36.5 -214.5q0 -183 84 -308.5t221 -125.5q119 0 196 66.5t85 173.5h133q-50 -348 -387 -351l-20 -73q44 0 76 -4.5t64 -18 t49 -42.5t17 -73q0 -66 -59 -100.5t-131 -34.5q-25 0 -47 1.5t-36 3.5t-35.5 7t-31.5 8t-38.5 12t-42.5 13l14 58q100 -39 182 -52q15 -2 45 5.5t41 17.5q16 14 20.5 27.5t4.5 37.5q0 39 -29 56.5t-70 17.5q-10 0 -21 -1t-24.5 -2.5t-21.5 -2.5l45 139q-103 7 -184.5 54.5 t-131 123.5t-75 169t-25.5 196z" />
<glyph unicode="&#xe8;" d="M102 514q0 107 29.5 203.5t85 173.5t144.5 122.5t200 45.5q125 0 217.5 -43.5t146.5 -123.5t79.5 -181t25.5 -226h-794q2 -85 22.5 -156t62 -127.5t110.5 -88t161 -31.5q108 0 191 69.5t106 176.5h129q-47 -183 -162.5 -271t-302.5 -88q-111 0 -199 45t-142 122.5 t-82 173.5t-28 204zM240 598h657q-11 157 -96 252.5t-238 95.5q-142 0 -226 -101t-97 -247zM326 1448h163l187 -293h-90z" />
<glyph unicode="&#xe9;" d="M102 514q0 107 29.5 203.5t85 173.5t144.5 122.5t200 45.5q125 0 217.5 -43.5t146.5 -123.5t79.5 -181t25.5 -226h-794q2 -85 22.5 -156t62 -127.5t110.5 -88t161 -31.5q108 0 191 69.5t106 176.5h129q-47 -183 -162.5 -271t-302.5 -88q-111 0 -199 45t-142 122.5 t-82 173.5t-28 204zM240 598h657q-11 157 -96 252.5t-238 95.5q-142 0 -226 -101t-97 -247zM463 1155l186 293h164l-260 -293h-90z" />
<glyph unicode="&#xea;" d="M102 514q0 107 29.5 203.5t85 173.5t144.5 122.5t200 45.5q125 0 217.5 -43.5t146.5 -123.5t79.5 -181t25.5 -226h-794q2 -85 22.5 -156t62 -127.5t110.5 -88t161 -31.5q108 0 191 69.5t106 176.5h129q-47 -183 -162.5 -271t-302.5 -88q-111 0 -199 45t-142 122.5 t-82 173.5t-28 204zM240 598h657q-11 157 -96 252.5t-238 95.5q-142 0 -226 -101t-97 -247zM291 1151l205 297h149l203 -297h-96l-183 217l-184 -217h-94z" />
<glyph unicode="&#xeb;" d="M102 514q0 107 29.5 203.5t85 173.5t144.5 122.5t200 45.5q125 0 217.5 -43.5t146.5 -123.5t79.5 -181t25.5 -226h-794q2 -85 22.5 -156t62 -127.5t110.5 -88t161 -31.5q108 0 191 69.5t106 176.5h129q-47 -183 -162.5 -271t-302.5 -88q-111 0 -199 45t-142 122.5 t-82 173.5t-28 204zM240 598h657q-11 157 -96 252.5t-238 95.5q-142 0 -226 -101t-97 -247zM315 1268v180h152v-180h-152zM672 1268v180h151v-180h-151z" />
<glyph unicode="&#xec;" horiz-adv-x="454" d="M-16 1448h163l187 -293h-90zM166 0v1028h123v-1028h-123z" />
<glyph unicode="&#xed;" horiz-adv-x="454" d="M121 1155l186 293h164l-260 -293h-90zM166 0v1028h123v-1028h-123z" />
<glyph unicode="&#xee;" horiz-adv-x="454" d="M-51 1151l205 297h149l203 -297h-96l-183 217l-184 -217h-94zM166 0v1028h123v-1028h-123z" />
<glyph unicode="&#xef;" horiz-adv-x="454" d="M-27 1268v180h152v-180h-152zM166 0v1028h123v-1028h-123zM330 1268v180h151v-180h-151z" />
<glyph unicode="&#xf0;" d="M90 485q0 99 29.5 190.5t85 165.5t146 118.5t202.5 44.5q257 0 365 -265l4 4q-6 73 -26.5 146.5t-58 150.5t-100.5 147.5t-145 121.5l-191 -117l-59 59l170 105q-48 24 -82 36.5t-113 34.5l35 82q92 -21 141 -38.5t119 -53.5l191 119l61 -57l-174 -109q359 -245 359 -821 q0 -273 -124.5 -426.5t-355.5 -153.5q-118 0 -212 44t-151 118.5t-86.5 164.5t-29.5 189zM223 485q0 -71 20 -140.5t59.5 -131t108.5 -99.5t158 -38t158 38t108.5 99.5t59.5 131t20 140.5q0 57 -12 113t-39 110.5t-66 96t-98 67t-131 25.5t-131 -25.5t-98 -67t-66 -96 t-39 -110.5t-12 -113z" />
<glyph unicode="&#xf1;" d="M154 1028h127l6 -151l4 -5q53 93 136 140t185 47q69 0 125.5 -17t93.5 -44t64.5 -65.5t42.5 -75.5t23.5 -80t11 -73t2.5 -61v-643h-123v664q0 133 -72 207.5t-198 74.5q-97 0 -165.5 -51t-99 -129t-30.5 -174v-592h-123v797q0 56 -10 231zM289 1233q19 86 76.5 131.5 t144.5 32.5q16 -2 82 -23q70 -18 80 -18q35 0 62.5 17.5t39.5 49.5h78q-19 -76 -66 -125t-120 -49q-30 0 -93 23q-62 20 -110 20q-34 0 -61.5 -15t-34.5 -44h-78z" />
<glyph unicode="&#xf2;" d="M90 514q0 83 18 160.5t56.5 148t94 122.5t135.5 83t175 31t175.5 -31t135.5 -83t94 -122.5t57 -148t18 -160.5t-18 -160.5t-57 -148t-94 -122.5t-135.5 -83t-175.5 -31t-175 31t-135.5 83t-94 122.5t-56.5 148t-18 160.5zM223 514q0 -59 12 -118t39 -116t66 -100.5 t98 -70.5t131 -27t131 27t98 70.5t66 100.5t39 116t12 118t-12 118t-39 116t-66 100.5t-98 70.5t-131 27t-131 -27t-98 -70.5t-66 -100.5t-39 -116t-12 -118zM326 1448h163l187 -293h-90z" />
<glyph unicode="&#xf3;" d="M90 514q0 83 18 160.5t56.5 148t94 122.5t135.5 83t175 31t175.5 -31t135.5 -83t94 -122.5t57 -148t18 -160.5t-18 -160.5t-57 -148t-94 -122.5t-135.5 -83t-175.5 -31t-175 31t-135.5 83t-94 122.5t-56.5 148t-18 160.5zM223 514q0 -59 12 -118t39 -116t66 -100.5 t98 -70.5t131 -27t131 27t98 70.5t66 100.5t39 116t12 118t-12 118t-39 116t-66 100.5t-98 70.5t-131 27t-131 -27t-98 -70.5t-66 -100.5t-39 -116t-12 -118zM463 1155l186 293h164l-260 -293h-90z" />
<glyph unicode="&#xf4;" d="M90 514q0 83 18 160.5t56.5 148t94 122.5t135.5 83t175 31t175.5 -31t135.5 -83t94 -122.5t57 -148t18 -160.5t-18 -160.5t-57 -148t-94 -122.5t-135.5 -83t-175.5 -31t-175 31t-135.5 83t-94 122.5t-56.5 148t-18 160.5zM223 514q0 -59 12 -118t39 -116t66 -100.5 t98 -70.5t131 -27t131 27t98 70.5t66 100.5t39 116t12 118t-12 118t-39 116t-66 100.5t-98 70.5t-131 27t-131 -27t-98 -70.5t-66 -100.5t-39 -116t-12 -118zM291 1151l205 297h149l203 -297h-96l-183 217l-184 -217h-94z" />
<glyph unicode="&#xf5;" d="M90 514q0 83 18 160.5t56.5 148t94 122.5t135.5 83t175 31t175.5 -31t135.5 -83t94 -122.5t57 -148t18 -160.5t-18 -160.5t-57 -148t-94 -122.5t-135.5 -83t-175.5 -31t-175 31t-135.5 83t-94 122.5t-56.5 148t-18 160.5zM223 514q0 -59 12 -118t39 -116t66 -100.5 t98 -70.5t131 -27t131 27t98 70.5t66 100.5t39 116t12 118t-12 118t-39 116t-66 100.5t-98 70.5t-131 27t-131 -27t-98 -70.5t-66 -100.5t-39 -116t-12 -118zM289 1233q19 86 76.5 131.5t144.5 32.5q16 -2 82 -23q70 -18 80 -18q35 0 62.5 17.5t39.5 49.5h78 q-19 -76 -66 -125t-120 -49q-30 0 -93 23q-62 20 -110 20q-34 0 -61.5 -15t-34.5 -44h-78z" />
<glyph unicode="&#xf6;" d="M90 514q0 83 18 160.5t56.5 148t94 122.5t135.5 83t175 31t175.5 -31t135.5 -83t94 -122.5t57 -148t18 -160.5t-18 -160.5t-57 -148t-94 -122.5t-135.5 -83t-175.5 -31t-175 31t-135.5 83t-94 122.5t-56.5 148t-18 160.5zM223 514q0 -59 12 -118t39 -116t66 -100.5 t98 -70.5t131 -27t131 27t98 70.5t66 100.5t39 116t12 118t-12 118t-39 116t-66 100.5t-98 70.5t-131 27t-131 -27t-98 -70.5t-66 -100.5t-39 -116t-12 -118zM315 1268v180h152v-180h-152zM672 1268v180h151v-180h-151z" />
<glyph unicode="&#xf7;" horiz-adv-x="1351" d="M164 453v122h1024v-122h-1024zM600 0v180h154v-180h-154zM600 848v180h154v-180h-154z" />
<glyph unicode="&#xf8;" d="M68 20l127 140q-105 146 -105 354q0 83 18 160.5t56.5 148t94 122.5t135.5 83t175 31q202 0 326 -131l121 131l49 -51l-123 -136q107 -149 107 -358q0 -83 -18 -160.5t-57 -148t-94 -122.5t-135.5 -83t-175.5 -31q-203 0 -329 133l-123 -133zM223 514q0 -140 64 -254 l522 574q-91 112 -240 112q-72 0 -131 -27t-98 -70.5t-66 -100.5t-39 -116t-12 -118zM326 199q91 -117 243 -117q72 0 131 27t98 70.5t66 100.5t39 116t12 118q0 145 -65 258z" />
<glyph unicode="&#xf9;" d="M164 385v643h123v-663q0 -133 72 -208t198 -75q97 0 165.5 51t99 129t30.5 174v592h123v-797q0 -56 10 -231h-127l-6 152l-4 4q-53 -93 -136.5 -140t-185.5 -47q-69 0 -125.5 17t-93.5 44t-64.5 65.5t-42 75t-23.5 80t-11 73.5t-2 61zM326 1448h163l187 -293h-90z" />
<glyph unicode="&#xfa;" d="M164 385v643h123v-663q0 -133 72 -208t198 -75q97 0 165.5 51t99 129t30.5 174v592h123v-797q0 -56 10 -231h-127l-6 152l-4 4q-53 -93 -136.5 -140t-185.5 -47q-69 0 -125.5 17t-93.5 44t-64.5 65.5t-42 75t-23.5 80t-11 73.5t-2 61zM463 1155l186 293h164l-260 -293 h-90z" />
<glyph unicode="&#xfb;" d="M164 385v643h123v-663q0 -133 72 -208t198 -75q97 0 165.5 51t99 129t30.5 174v592h123v-797q0 -56 10 -231h-127l-6 152l-4 4q-53 -93 -136.5 -140t-185.5 -47q-69 0 -125.5 17t-93.5 44t-64.5 65.5t-42 75t-23.5 80t-11 73.5t-2 61zM291 1151l205 297h149l203 -297h-96 l-183 217l-184 -217h-94z" />
<glyph unicode="&#xfc;" d="M164 385v643h123v-663q0 -133 72 -208t198 -75q97 0 165.5 51t99 129t30.5 174v592h123v-797q0 -56 10 -231h-127l-6 152l-4 4q-53 -93 -136.5 -140t-185.5 -47q-69 0 -125.5 17t-93.5 44t-64.5 65.5t-42 75t-23.5 80t-11 73.5t-2 61zM315 1268v180h152v-180h-152z M672 1268v180h151v-180h-151z" />
<glyph unicode="&#xfd;" horiz-adv-x="1024" d="M16 1028h150l346 -860l344 860h133l-567 -1421h-135l155 393zM406 1155l186 293h164l-260 -293h-90z" />
<glyph unicode="&#xfe;" d="M143 -393v1872h123v-602l4 -5q52 88 149.5 137.5t203.5 49.5q89 0 161 -31t119.5 -82.5t80 -122t46.5 -147t14 -158.5q0 -80 -14 -156.5t-46 -148t-79 -125.5t-118 -86.5t-158 -32.5q-112 0 -204 49t-155 142h-4v-553h-123zM266 539q0 -73 10.5 -137t36 -124t64.5 -102.5 t100 -68t139 -25.5q68 0 121 29t85 74.5t53 106.5t28.5 119.5t7.5 120.5t-10 119t-33.5 111.5t-58.5 94.5t-89.5 64.5t-121.5 24.5q-87 0 -152.5 -33.5t-104 -92t-57 -129t-18.5 -152.5z" />
<glyph unicode="&#xff;" horiz-adv-x="1024" d="M16 1028h150l346 -860l344 860h133l-567 -1421h-135l155 393zM258 1268v180h152v-180h-152zM614 1268v180h152v-180h-152z" />
<glyph unicode="&#x152;" horiz-adv-x="2048" d="M125 739q0 230 74 404t214.5 270t329.5 96q115 0 211 -35.5t183 -123.5v129h770v-123h-637v-531h608v-123h-608v-579h667v-123h-800v141h-9q-63 -85 -168.5 -128.5t-216.5 -43.5q-189 0 -329.5 96t-214.5 270t-74 404zM268 739q0 -125 29 -238.5t85 -206t149.5 -147.5 t211.5 -55q183 6 286.5 99.5t103.5 261.5v518q1 218 -97 316.5t-293 98.5q-118 0 -211.5 -55t-149.5 -147.5t-85 -206t-29 -238.5z" />
<glyph unicode="&#x153;" horiz-adv-x="1820" d="M90 514q0 83 18 160.5t56.5 148t94 122.5t135.5 83t175 31q124 0 219.5 -67.5t145.5 -188.5q39 122 135 189t203 67q118 0 206 -44t140 -123t77 -180.5t25 -226.5h-716q-2 -77 12 -146t44.5 -129.5t87.5 -95t134 -32.5q108 0 191 69.5t106 176.5h129 q-46 -180 -155.5 -269.5t-268.5 -89.5q-79 0 -148.5 27t-123.5 86t-76 143h-4q-44 -124 -142.5 -190t-220.5 -66q-95 0 -175 31t-135.5 83t-94 122.5t-56.5 148t-18 160.5zM223 514q0 -74 19.5 -148t58 -139t103.5 -105t147 -40q73 -1 130 25.5t92 69t57.5 102t31 119 t8.5 126.5q0 77 -16 147.5t-50.5 135t-99.5 102.5t-153 37q-82 0 -147 -40t-103.5 -105t-58 -139t-19.5 -148zM1004 598h583q0 76 -16.5 137.5t-51 109.5t-93.5 74.5t-138 26.5q-88 0 -155.5 -53t-99.5 -131.5t-29 -163.5z" />
<glyph unicode="&#x178;" horiz-adv-x="1251" d="M16 1479h170l453 -715l453 715h143l-541 -836v-643h-133v639zM373 1718v180h151v-180h-151zM729 1718v180h152v-180h-152z" />
<glyph unicode="&#x2c6;" horiz-adv-x="569" d="M6 1151l205 297h149l203 -297h-96l-182 217l-185 -217h-94z" />
<glyph unicode="&#x2dc;" horiz-adv-x="569" d="M4 1233q19 86 76.5 131.5t144.5 32.5q16 -2 82 -23q70 -18 80 -18q35 0 62.5 17.5t39.5 49.5h78q-19 -76 -66 -125t-120 -49q-29 0 -92 23q-62 20 -111 20q-34 0 -61.5 -15t-34.5 -44h-78z" />
<glyph unicode="&#x2000;" horiz-adv-x="980" />
<glyph unicode="&#x2001;" horiz-adv-x="1960" />
<glyph unicode="&#x2002;" horiz-adv-x="980" />
<glyph unicode="&#x2003;" horiz-adv-x="1960" />
<glyph unicode="&#x2004;" horiz-adv-x="653" />
<glyph unicode="&#x2005;" horiz-adv-x="490" />
<glyph unicode="&#x2006;" horiz-adv-x="326" />
<glyph unicode="&#x2007;" horiz-adv-x="326" />
<glyph unicode="&#x2008;" horiz-adv-x="245" />
<glyph unicode="&#x2009;" horiz-adv-x="392" />
<glyph unicode="&#x200a;" horiz-adv-x="108" />
<glyph unicode="&#x2010;" horiz-adv-x="569" d="M27 485v123h516v-123h-516z" />
<glyph unicode="&#x2011;" horiz-adv-x="569" d="M27 485v123h516v-123h-516z" />
<glyph unicode="&#x2012;" horiz-adv-x="569" d="M27 485v123h516v-123h-516z" />
<glyph unicode="&#x2013;" horiz-adv-x="1024" d="M0 485v123h1024v-123h-1024z" />
<glyph unicode="&#x2014;" horiz-adv-x="2048" d="M0 485v123h2048v-123h-2048z" />
<glyph unicode="&#x2018;" horiz-adv-x="569" d="M150 1059l147 420h106l-88 -420h-165z" />
<glyph unicode="&#x2019;" horiz-adv-x="569" d="M166 1059l88 420h166l-148 -420h-106z" />
<glyph unicode="&#x201a;" horiz-adv-x="569" d="M166 -254l88 420h166l-148 -420h-106z" />
<glyph unicode="&#x201c;" d="M244 1059l147 420h107l-88 -420h-166zM621 1059l147 420h106l-88 -420h-165z" />
<glyph unicode="&#x201d;" d="M264 1059l88 420h166l-147 -420h-107zM641 1059l88 420h166l-147 -420h-107z" />
<glyph unicode="&#x201e;" d="M260 -254l88 420h166l-147 -420h-107zM637 -254l88 420h166l-148 -420h-106z" />
<glyph unicode="&#x2022;" horiz-adv-x="1024" d="M143 739q0 153 108 261t259 108q154 0 262.5 -107.5t108.5 -261.5q0 -151 -109 -259.5t-262 -108.5q-151 0 -259 108.5t-108 259.5z" />
<glyph unicode="&#x2026;" horiz-adv-x="2048" d="M260 0v176h164v-176h-164zM942 0v176h164v-176h-164zM1624 0v176h164v-176h-164z" />
<glyph unicode="&#x202f;" horiz-adv-x="392" />
<glyph unicode="&#x2039;" horiz-adv-x="569" d="M119 547l217 399h104l-190 -399l188 -400h-102z" />
<glyph unicode="&#x203a;" horiz-adv-x="569" d="M129 147l190 400l-188 399h102l218 -399l-218 -400h-104z" />
<glyph unicode="&#x205f;" horiz-adv-x="490" />
<glyph unicode="&#x20ac;" d="M55 563l35 115h90v31q0 46 2 71h-123l35 115h101q12 91 38.5 171.5t71 151t103 121.5t138.5 80t173 29q234 0 360 -172l-55 -180q-35 113 -118.5 171t-188.5 58q-70 0 -129 -24t-100 -64t-72 -96.5t-49.5 -116.5t-28.5 -129h627l-35 -115h-604q-2 -25 -2 -71v-31h573 l-35 -115h-530q11 -96 36.5 -176t69.5 -148.5t115.5 -107.5t163.5 -39q170 0 311 174v-170q-127 -127 -309 -127q-122 0 -219 46.5t-160 129.5t-100.5 187.5t-51.5 230.5h-133z" />
<glyph unicode="&#x2122;" horiz-adv-x="1925" d="M59 1397v82h656v-82h-271v-781h-112v781h-273zM868 616v863h203l246 -637h4l242 637h202v-863h-112v773h-4l-297 -773h-70l-297 773h-4v-773h-113z" />
<glyph unicode="&#x25fc;" horiz-adv-x="1024" d="M0 0v1024h1024v-1024h-1024z" />
<glyph unicode="&#xfb01;" d="M45 915v113h207v219q0 133 58.5 194.5t189.5 61.5q18 0 36.5 -3.5t44.5 -10t35 -8.5v-99q-56 9 -75 9q-61 0 -97.5 -15.5t-51 -45.5t-18 -73t0.5 -98v-131h233v-113h-233v-915h-123v915h-207zM821 1325v154h144v-154h-144zM831 0v1028h123v-1028h-123z" />
<glyph unicode="&#xfb02;" d="M49 915v113h207v219q0 133 58.5 194.5t189.5 61.5q18 0 36.5 -3.5t45 -10t35.5 -8.5v-99q-56 9 -76 9q-61 0 -97.5 -15.5t-51 -45.5t-18 -73t0.5 -98v-131h233v-113h-233v-915h-123v915h-207zM840 0v1479h123v-1479h-123z" />
</font>
</defs>
</svg>
